<?xml version="1.0" standalone="no"?>
<!DOCTYPE svg PUBLIC "-//W3C//DTD SVG 1.1//EN" "http://www.w3.org/Graphics/SVG/1.1/DTD/svg11.dtd" >
<svg xmlns="http://www.w3.org/2000/svg">
<metadata>Generated by IcoMoon</metadata>
<defs>
<font id="icons" horiz-adv-x="1024">
<font-face units-per-em="1024" ascent="960" descent="-64" />
<missing-glyph horiz-adv-x="1024" />
<glyph unicode="&#x20;" horiz-adv-x="512" d="" />
<glyph unicode="&#xe900;" glyph-name="001" d="M1024 444.928c-1.832 281.377-230.356 508.77-511.99 508.77-282.77 0-512-229.23-512-512 0-254.495 185.68-465.623 428.958-505.3l2.955-0.398v360.038h-129.843v148.89h129.843v113.459c0 129.024 76.39 200.499 193.536 200.499 40.927-0.636 80.491-4.261 119.114-10.67l-4.631 0.635v-126.976h-64.102c-2.786 0.369-6.008 0.58-9.279 0.58-41.171 0-74.547-33.376-74.547-74.547 0-2.223 0.097-4.423 0.288-6.596l-0.020 0.282v-96.666h141.926l-22.528-148.89h-119.808v-360.038c246.506 40.977 432.13 252.638 432.13 507.653 0 0.448-0.001 0.897-0.002 1.345v-0.070z" />
<glyph unicode="&#xe901;" glyph-name="002" d="M512 960c-282.77 0-512-229.23-512-512s229.23-512 512-512c282.77 0 512 229.23 512 512v0c0 282.77-229.23 512-512 512v0zM769.229 545.075c0-5.325 0-10.65 0-15.974 0-0.057 0-0.124 0-0.191 0-193.754-157.069-350.822-350.822-350.822-70.189 0-135.565 20.613-190.402 56.115l1.372-0.832c7.729-1.063 16.659-1.67 25.732-1.67 1.25 0 2.497 0.012 3.741 0.034l-0.187-0.003c0.164 0 0.358-0.001 0.552-0.001 57.727 0 110.843 19.738 152.968 52.834l-0.535-0.405c-53.876 0.84-99.268 36.226-115.059 84.942l-0.244 0.869c7.029-1.404 15.11-2.207 23.379-2.207 11.497 0 22.631 1.553 33.204 4.461l-0.877-0.206c-56.792 11.589-98.919 61.135-98.919 120.521 0 0.181 0 0.362 0.001 0.543v-0.028 1.638c16.037-9.204 35.139-14.895 55.511-15.56l0.195-0.005c-33.153 22.355-54.667 59.769-54.667 102.208 0 22.7 6.155 43.962 16.887 62.208l-0.313-0.576c61.166-74.717 151.581-123.515 253.508-128.784l0.853-0.035c-2.372 9.025-3.735 19.386-3.735 30.065 0 67.865 55.015 122.88 122.88 122.88 36.124 0 68.608-15.588 91.091-40.405l0.093-0.104c29.58 5.969 55.853 16.339 79.577 30.532l-1.138-0.631c-9.502-29.1-28.708-52.823-53.719-67.889l-0.553-0.309c26.286 3.162 50.225 10.015 72.395 20.080l-1.535-0.624c-16.852-25.056-37.24-46.226-60.732-63.404l-0.708-0.493z" />
<glyph unicode="&#xe902;" glyph-name="003" d="M751.411 629.248c-10.525 26.878-31.443 47.729-57.68 57.928l-0.688 0.235c-16.887 6.499-36.418 10.382-56.821 10.648l-0.114 0.001c-32.154 1.434-40.96 1.843-124.109 1.843s-91.955 0-124.109-1.843c-20.517-0.268-40.047-4.151-58.094-11.038l1.159 0.389c-26.828-10.59-47.688-31.383-58.124-57.473l-0.244-0.69c-6.438-16.966-10.252-36.578-10.444-57.056l-0.001-0.083c-1.638-32.358-1.843-40.96-1.843-124.109s0-91.75 1.843-123.904c0.193-20.561 4.006-40.173 10.831-58.311l-0.387 1.171c10.635-26.863 31.505-47.733 57.676-58.126l0.692-0.242c16.902-6.439 36.444-10.253 56.852-10.444l0.082-0.001c32.154-1.434 42.189-1.843 124.109-1.843s91.955 0 124.109 1.843c20.49 0.192 40.032 4.006 58.096 10.83l-1.161-0.385c26.863 10.635 47.733 31.505 58.126 57.676l0.242 0.692c6.498 16.951 10.381 36.552 10.648 57.025l0.001 0.115c1.434 32.154 1.843 41.984 1.843 123.904s0 91.955-1.843 124.109c-0.269 20.588-4.151 40.188-11.040 58.308l0.39-1.169zM512 290.304c-0.061 0-0.133 0-0.205 0-87.206 0-157.901 70.695-157.901 157.901s70.695 157.901 157.901 157.901c87.206 0 157.901-70.695 157.901-157.901 0-0.072 0-0.144 0-0.216v0.011c0-87.093-70.603-157.696-157.696-157.696v0zM675.84 575.181c-20.359 0-36.863 16.505-36.863 36.864s16.505 36.864 36.864 36.864c20.359 0 36.864-16.505 36.864-36.864 0-0.072 0-0.144-0.001-0.216v0.011c0 0 0 0 0-0.001 0-20.246-16.413-36.659-36.659-36.659-0.072 0-0.144 0-0.216 0.001h0.011zM512 550.4c-56.554 0-102.4-45.846-102.4-102.4s45.846-102.4 102.4-102.4c56.554 0 102.4 45.846 102.4 102.4v0 0c0 56.554-45.846 102.4-102.4 102.4v0zM512 960c-282.77 0-512-229.23-512-512s229.23-512 512-512c282.77 0 512 229.23 512 512v0 0c0 282.77-229.23 512-512 512v0zM817.357 321.229c-0.504-26.914-5.719-52.464-14.852-76.063l0.516 1.516c-16.333-41.345-48.405-73.484-88.638-89.533l-1.064-0.375c-22.159-8.477-47.779-13.615-74.531-14.128l-0.221-0.003c-32.768-1.843-43.213-1.843-126.566-1.843s-93.798 0-126.566 1.843c-26.973 0.516-52.593 5.654-76.314 14.651l1.562-0.52c-41.298 16.423-73.37 48.562-89.33 88.84l-0.373 1.067c-8.518 22.081-13.723 47.616-14.331 74.286l-0.005 0.261c-1.843 32.768-1.843 43.213-1.843 126.771s0 93.798 1.843 126.566c0.574 26.925 5.783 52.465 14.857 76.089l-0.521-1.542c16.267 41.387 48.363 73.55 88.64 89.535l1.062 0.372c22.141 8.439 47.735 13.636 74.45 14.33l0.302 0.006c32.768 1.843 43.213 1.843 126.566 1.843s93.798 0 126.566-1.843c27.017-0.7 52.611-5.897 76.353-14.867l-1.601 0.531c41.339-16.357 73.436-48.52 89.332-88.842l0.37-1.065c8.553-22.082 13.762-47.622 14.332-74.304l0.004-0.243c1.843-32.768 1.843-43.213 1.843-126.566s0-94.003-1.843-126.771z" />
<glyph unicode="&#xe903;" glyph-name="004" d="M447.078 353.382l166.093 94.618-166.093 94.618zM512 960c-282.77 0-512-229.23-512-512s229.23-512 512-512c282.77 0 512 229.23 512 512v0 0c0 282.77-229.23 512-512 512v0zM816.538 293.99c-7.416-27.586-28.606-48.912-55.557-56.393l-0.559-0.132c-67.164-8.58-144.867-13.476-223.713-13.476-8.688 0-17.363 0.059-26.023 0.178l1.314-0.014c-7.301-0.103-15.921-0.162-24.555-0.162-78.9 0-156.657 4.895-232.983 14.399l9.116-0.926c-27.509 7.613-48.699 28.939-55.988 55.969l-0.128 0.556c-8.483 44.455-13.335 95.589-13.335 147.856 0 2.164 0.008 4.326 0.025 6.486l-0.002-0.332c-0.015 1.828-0.023 3.99-0.023 6.154 0 52.267 4.852 103.4 14.131 152.975l-0.796-5.119c7.391 27.649 28.582 49.043 55.554 56.596l0.561 0.134c74.53 8.509 160.909 13.364 248.422 13.364s173.889-4.854 258.879-14.308l-10.457 0.945c27.534-7.687 48.724-29.080 55.988-56.173l0.127-0.557c8.483-44.455 13.335-95.589 13.335-147.856 0-2.164-0.008-4.326-0.025-6.486l0.002 0.332c0.015-1.828 0.023-3.99 0.023-6.154 0-52.267-4.852-103.4-14.131-152.975l0.796 5.119z" />
<glyph unicode="&#xe904;" glyph-name="005" d="M370.893 775.68c8.302-8.424 13.428-19.998 13.428-32.768s-5.127-24.344-13.434-32.774l-215.853-215.648h822.886c24.204-1.662 43.208-21.703 43.208-46.182s-19.004-44.521-43.064-46.174l-0.144-0.008h-822.477l216.064-216.883c8.242-8.413 13.328-19.946 13.328-32.666s-5.086-24.252-13.336-32.674l0.008 0.008c-8.27-7.963-19.534-12.869-31.943-12.869-12.616 0-24.047 5.070-32.369 13.283l0.005-0.005-294.093 295.117c-3.842 4.216-7.070 9.083-9.484 14.397l-0.142 0.348c-2.198 5.271-3.477 11.394-3.482 17.816v0.002c0.022 12.58 5.016 23.989 13.12 32.372l-0.013-0.013 294.093 295.322c8.319 8.618 19.972 13.97 32.876 13.97 12.188 0 23.261-4.774 31.451-12.555l-0.020 0.019z" />
<glyph unicode="&#xe905;" glyph-name="006" d="M839.68 306.688c-8.392 8.29-19.931 13.41-32.666 13.41s-24.274-5.12-32.67-13.415l-216.059-215.854v822.886c0.065 0.92 0.102 1.994 0.102 3.077 0 25.562-20.722 46.285-46.285 46.285s-46.285-20.722-46.285-46.285c0-1.083 0.037-2.157 0.11-3.221l-0.008 0.144v-822.477l-216.474 216.269c-8.446 8.254-20.012 13.346-32.768 13.346s-24.322-5.092-32.777-13.355l0.009 0.009c-8.315-8.304-13.459-19.782-13.459-32.461s5.144-24.157 13.458-32.46l0.001-0.001 295.526-293.478c4.141-3.87 8.944-7.099 14.209-9.491l0.332-0.135c5.332-2.203 11.522-3.482 18.012-3.482 0.004 0 0.007 0 0.011 0h-0.001c0.001 0 0.002 0 0.003 0 12.583 0 23.998 4.999 32.368 13.119l-0.012-0.011 295.322 293.069c8.707 8.233 14.126 19.865 14.126 32.763 0 12.086-4.758 23.060-12.504 31.151l0.016-0.017z" />
<glyph unicode="&#xe906;" glyph-name="007" d="M653.107 775.68c-8.29-8.392-13.41-19.931-13.41-32.666s5.12-24.274 13.415-32.67l215.854-215.854h-822.886c-24.204-1.662-43.208-21.703-43.208-46.182s19.004-44.521 43.064-46.174l0.144-0.008h822.477l-216.064-216.883c-8.242-8.413-13.328-19.946-13.328-32.666s5.086-24.252 13.336-32.674l-0.008 0.008c8.337-8.327 19.849-13.476 32.563-13.476s24.226 5.15 32.564 13.477v0l293.274 295.526c3.792 4.176 7.012 8.968 9.476 14.188l0.15 0.353c2.203 5.282 3.482 11.418 3.482 17.854 0 0.059 0 0.119 0 0.178v-0.009c0 0.001 0 0.002 0 0.003 0 12.583-4.999 23.998-13.119 32.368l0.011-0.012-293.069 295.322c-8.301 8.731-20.002 14.161-32.972 14.161-12.155 0-23.196-4.77-31.354-12.54l0.019 0.018z" />
<glyph unicode="&#xe907;" glyph-name="008" d="M184.32 589.107c8.392-8.29 19.931-13.41 32.666-13.41s24.274 5.12 32.67 13.415l215.854 215.854v-822.886c1.662-24.204 21.703-43.208 46.182-43.208s44.521 19.004 46.174 43.064l0.008 0.144v822.477l216.883-216.064c8.413-8.242 19.946-13.328 32.666-13.328s24.252 5.086 32.674 13.336l-0.008-0.008c7.963 8.27 12.869 19.534 12.869 31.943 0 12.616-5.070 24.047-13.283 32.369l0.005-0.005-295.117 294.093c-4.176 3.792-8.968 7.012-14.188 9.476l-0.353 0.15c-5.282 2.203-11.418 3.482-17.854 3.482-0.059 0-0.119 0-0.178 0h0.009c-0.001 0-0.002 0-0.003 0-12.583 0-23.998-4.999-32.368-13.119l0.012 0.011-295.322-294.093c-8.731-8.301-14.161-20.002-14.161-32.972 0-12.155 4.77-23.196 12.54-31.354l-0.018 0.019z" />
<glyph unicode="&#xe908;" glyph-name="009" d="M628.122 448l-387.277 387.277c-13.032 13.136-21.086 31.227-21.086 51.2s8.054 38.064 21.091 51.205l-0.005-0.005c13.287 13.201 31.598 21.361 51.814 21.361s38.527-8.159 51.818-21.365l-0.004 0.004 438.886-437.658c13.196-13.194 21.359-31.423 21.359-51.559 0-18.989-7.26-36.283-19.155-49.257l0.049 0.054-440.73-442.778c-13.423-14.388-32.494-23.357-53.66-23.357-40.493 0-73.318 32.826-73.318 73.318 0 21.064 8.883 40.053 23.107 53.427l0.038 0.036z" />
<glyph unicode="&#xe909;" glyph-name="010" d="M976.691 12.39l-209.306 210.33c78.191 77.889 126.573 185.653 126.573 304.717 0 237.527-192.553 430.080-430.080 430.080s-430.080-192.553-430.080-430.080c0-237.527 192.553-430.080 430.080-430.080 86.341 0 166.739 25.443 234.107 69.239l-1.666-1.015 216.678-216.474c8.124-8.124 19.347-13.149 31.744-13.149 24.794 0 44.893 20.099 44.893 44.893 0 12.397-5.025 23.62-13.149 31.744v0zM130.662 524.595c0 0.122 0 0.266 0 0.41 0 186.176 150.925 337.101 337.101 337.101s337.101-150.925 337.101-337.101c0-186.176-150.925-337.101-337.101-337.101v0c-186.057 0.116-336.868 150.855-337.101 336.873v0.023z" />
<glyph unicode="&#xe90a;" glyph-name="011" d="M512 960c-282.77 0-512-229.23-512-512s229.23-512 512-512c282.77 0 512 229.23 512 512v0 0c0 282.77-229.23 512-512 512v0zM750.797 398.438l-363.315-208.486c-6.91-3.887-15.168-6.177-23.962-6.177-27.372 0-49.562 22.189-49.562 49.562 0 0.012 0 0.023 0 0.035v-0.002 430.080c0 0 0 0 0 0 0 27.372 22.189 49.562 49.562 49.562 0.072 0 0.144 0 0.216 0h-0.011c0.099 0.001 0.215 0.001 0.332 0.001 8.609 0 16.685-2.28 23.658-6.268l-0.234 0.123 363.315-221.594c15.294-8.688 25.443-24.868 25.443-43.418s-10.149-34.73-25.198-43.289l-0.246-0.129z" />
<glyph unicode="&#xe90b;" glyph-name="012" d="M43.827 541.184l368.64-411.238c24.297-28.268 60.094-46.061 100.048-46.061 32.152 0 61.613 11.523 84.479 30.664l-0.206-0.168c5.61 4.772 10.638 9.865 15.196 15.361l0.164 0.203 368.64 411.238c26.924 28.848 43.454 67.699 43.454 110.411 0 82.987-62.4 151.399-142.839 160.876l-0.762 0.073h-737.28c-81.115-9.406-143.493-77.704-143.493-160.571 0-42.921 16.734-81.933 44.034-110.868l-0.074 0.079z" />
<glyph unicode="&#xe90c;" glyph-name="013" d="M326.246 224.154l-240.845 241.254-85.402-81.51 326.246-325.018 697.754 696.32-85.402 81.92z" />
<glyph unicode="&#xe90d;" glyph-name="014" d="M512 960c-282.77 0-512-229.23-512-512s229.23-512 512-512c282.77 0 512 229.23 512 512v0 0c0 282.77-229.23 512-512 512v0zM479.027 282.931c-0.228-18.231-14.947-32.95-33.156-33.177h-98.94c-18.231 0.228-32.95 14.947-33.177 33.156v330.364c0.116 18.235 14.925 32.973 33.177 32.973 0 0 0 0 0.001 0h98.918c0 0 0 0 0.001 0 18.251 0 33.061-14.738 33.177-32.962v-0.011zM710.246 282.931c-0.228-18.231-14.947-32.95-33.156-33.177h-98.94c-18.231 0.228-32.95 14.947-33.177 33.156v330.364c0.116 18.235 14.925 32.973 33.177 32.973 0 0 0 0 0.001 0h98.918c0 0 0 0 0.001 0 18.251 0 33.061-14.738 33.177-32.962v-0.011z" />
<glyph unicode="&#xe90e;" glyph-name="015" d="M469.197 219.034c11.016-10.563 25.996-17.067 42.496-17.067s31.48 6.504 42.518 17.088l-0.022-0.021 276.48 276.48c10.622 11.028 17.165 26.049 17.165 42.598s-6.543 31.571-17.184 42.618l0.018-0.019c-10.82 11.001-25.864 17.818-42.5 17.818-0.034 0-0.069 0-0.103 0h-95.432v301.261c0 33.254-26.957 60.211-60.211 60.211v0h-240.845c-33.254 0-60.211-26.957-60.211-60.211v0-301.261h-95.846c-0.366 0.008-0.798 0.013-1.23 0.013-33.114 0-59.985-26.732-60.21-59.793v-0.021c0.015-16.858 6.818-32.125 17.822-43.217l-0.004 0.004zM873.472 56.422h-722.944c-33.254 0-60.211-26.957-60.211-60.211s26.957-60.211 60.211-60.211v0h722.944c33.254 0 60.211 26.957 60.211 60.211s-26.957 60.211-60.211 60.211v0z" />
<glyph unicode="&#xe90f;" glyph-name="016" d="M1001.882 937.267c-14.079 14.059-33.519 22.753-54.989 22.753s-40.91-8.694-54.99-22.754l-381.337-380.517-381.542 381.338c-13.51 11.512-31.169 18.515-50.463 18.515-43.094 0-78.029-34.935-78.029-78.029 0-19.294 7.003-36.953 18.606-50.573l-0.091 0.11 381.338-381.542-381.338-381.338c-11.512-13.51-18.515-31.169-18.515-50.463 0-43.094 34.935-78.029 78.029-78.029 19.294 0 36.953 7.003 50.573 18.606l-0.11-0.091 381.542 381.338 381.338-381.338c13.51-11.512 31.169-18.515 50.463-18.515 43.094 0 78.029 34.935 78.029 78.029 0 19.294-7.003 36.953-18.606 50.573l0.091-0.11-381.338 381.338 381.338 381.542c13.768 14.059 22.265 33.327 22.265 54.579s-8.497 40.521-22.278 54.593l0.013-0.013z" />
<glyph unicode="&#xe910;" glyph-name="017" d="M950.886 521.114h-365.773v365.773c0 40.38-32.734 73.114-73.114 73.114s-73.114-32.734-73.114-73.114v0-365.773h-365.773c-40.38 0-73.114-32.734-73.114-73.114s32.734-73.114 73.114-73.114h365.773v-365.773c0-40.38 32.734-73.114 73.114-73.114s73.114 32.734 73.114 73.114v365.773h365.773c40.38 0 73.114 32.734 73.114 73.114s-32.734 73.114-73.114 73.114v0z" />
<glyph unicode="&#xe911;" glyph-name="018" d="M950.886 521.114h-877.773c-40.38 0-73.114-32.734-73.114-73.114s32.734-73.114 73.114-73.114h877.773c40.38 0 73.114 32.734 73.114 73.114s-32.734 73.114-73.114 73.114v0z" />
<glyph unicode="&#xe912;" glyph-name="019" d="M512 960c-282.77 0-512-229.23-512-512s229.23-512 512-512c282.77 0 512 229.23 512 512v0c0 282.77-229.23 512-512 512v0zM319.898 729.395c1.289 0.107 2.791 0.167 4.306 0.167 30.652 0 55.501-24.849 55.501-55.501 0-0.275-0.002-0.549-0.006-0.823v0.041c0-31.949-23.962-55.91-63.898-55.91-1.226-0.096-2.655-0.151-4.097-0.151-30.765 0-55.706 24.94-55.706 55.706 0 0.125 0 0.25 0.001 0.375v-0.019c0 32.358 23.962 56.115 63.898 56.115zM384 234.598h-128v341.402h128zM810.598 234.598h-120.422v186.573c0 51.61-32.154 63.488-44.237 63.488s-52.019-7.987-52.019-63.488v-186.573h-124.518v341.402h124.518v-47.718c15.974 27.853 48.128 47.718 108.339 47.718s108.339-47.718 108.339-154.829z" />
<glyph unicode="&#xe913;" glyph-name="020" d="M512 960c-282.77 0-512-229.23-512-512s229.23-512 512-512c282.77 0 512 229.23 512 512v0c0 282.77-229.23 512-512 512v0zM820.429 139.571c-78.944-78.958-188.011-127.795-308.485-127.795-240.92 0-436.224 195.304-436.224 436.224s195.304 436.224 436.224 436.224c120.474 0 229.542-48.838 308.485-127.795v0c78.974-78.915 127.824-187.967 127.824-308.429s-48.85-229.513-127.821-308.426l-0.003-0.003zM539.443 292.147c-9.011-10.445-16.589-15.77-22.733-15.77-0.1-0.003-0.217-0.005-0.334-0.005-2.342 0-4.504 0.771-6.247 2.073l0.027-0.020c-2.048 1.229-3.072 4.096-3.072 8.397 0.939 10.597 2.677 20.29 5.189 29.667l-0.274-1.2q2.253 8.602 7.987 30.72l47.104 172.851-25.805-5.12c-9.011-1.638-24.371-3.891-46.080-6.349s-38.093-4.096-49.562-4.915v-15.974c0.198 0.001 0.432 0.002 0.666 0.002 9.76 0 19.188-1.422 28.088-4.071l-0.696 0.178c5.12-1.843 7.782-6.963 7.782-14.95 0.044-0.674 0.069-1.46 0.069-2.253s-0.025-1.579-0.074-2.359l0.005 0.107c0-1.638 0-3.277-1.024-4.71l-37.274-136.397c-2.867-10.035-4.915-18.227-6.349-24.166-1.73-6.868-2.971-14.925-3.464-23.183l-0.018-0.369c-0.070-0.853-0.11-1.846-0.11-2.849 0-11.333 5.114-21.472 13.161-28.234l0.056-0.046c7.943-6.383 18.149-10.244 29.257-10.244 0.226 0 0.452 0.002 0.678 0.005h-0.034c22.141 0.322 42.015 9.769 56.077 24.739l0.039 0.042c16.252 17.508 31.226 36.713 44.472 57.142l0.994 1.635-14.336 8.602c-7.578-12.441-15.552-23.218-24.382-33.222l0.216 0.249zM550.912 654.234c-0.211 0.004-0.46 0.006-0.709 0.006-11.040 0-21.017-4.55-28.159-11.876l-0.008-0.008c-7.45-6.938-12.094-16.803-12.094-27.752 0-0.323 0.004-0.646 0.012-0.967l-0.001 0.048c-0.005-0.23-0.008-0.501-0.008-0.773 0-11.059 4.637-21.034 12.074-28.088l0.017-0.016c7.199-7.456 17.283-12.086 28.449-12.086 0.15 0 0.301 0.001 0.451 0.003h-0.023c0.144-0.002 0.314-0.003 0.485-0.003 11.084 0 21.085 4.634 28.172 12.071l0.015 0.016c7.342 7.4 11.878 17.592 11.878 28.844 0 0.011 0 0.023 0 0.034v-0.002c0.002 0.151 0.003 0.329 0.003 0.508 0 11.039-4.548 21.015-11.873 28.156l-0.008 0.008c-7.054 7.332-16.949 11.886-27.908 11.886-0.269 0-0.537-0.003-0.804-0.008l0.040 0.001z" />
</font>
</defs>
</svg>
